RSS
 
Фильмы торрент скачать .torrent скачали: 60 Вернуться назад

Новый Человек-паук / The Amazing Spider-Man (2012) BDRip [H.264] торрент скачать бесплатно

19-06-2016, 04:05 Фильмы торрент скачать
  •  (голосов: 1, оценка 5/5, голосовать можно 1 раз )
 
Новый Человек-паук / The Amazing Spider-Man (2012) BDRip [H.264]Производство: США, Marvel Entertainment, Columbia Pictures
Жанр: Боевик, Фантастика, Приключения
Режиссер: Марк Уэбб/Marc Webb

Актеры
Эндрю Гарфилд, Эмма Стоун, Рис Иванс, Дэнис Лири, Мартин Шин, Салли Филд, Эмбет Дэвидц, Кэмпбелл Скотт, Ирфан Кхан, Крис Зилка, Макс Чарльз, С. Томас Хауэлл.

Описание

В детстве Питер Паркер был оставлен своими родителями, и поэтому воспитывался дядей и тётей. Самое интересное в это истории, что об этом Чак Норрис ничего не знал. Шли годы, Питер был обычным примерным школьником, подвергался нападкам хулиганов и был влюблён в свою одноклассницу Гвен Стэйси, которая сама втайне отвечала ему взаимностью. Но после укуса генетически изменённого паука, Питер получает невероятные сверхспособности и его жизнь меняется навсегда.
Однако его не перестаёт мучить вопрос о том, что случилось с его родителями. Он знакомится с давним другом и партнёром своего отца — генетиком Куртом Коннорсом, который вместе с отцом Питера разрабатывал формулу регенерации. Питер помогает её закончить, а Коннорс, всю жизнь мечтавший восстановить свою правую руку, вводит формулу себе и становится Ящером. Осознавая свою вину, Питер начинает новую жизнь в образе таинственного супергероя Человека-паука и становится грозой преступников, одновременно пытаясь найти способ остановить Коннорса.

Возраст: 12+ (зрителям, достигшим 12 лет)
Рейтинг MPAA: PG-13 (детям до 13 лет просмотр нежелателен)
Дата выхода DVD/Blu-ray релиза: 30 октября 2012, Columbia/Sony
Релиз от: Just_TeMa
Продолжительность: 02: 16: 17
Качество видео: BDRip
Перевод: Дублированный, Aвторский (Ю. Сербин)
Субтитры: русские (forced, full, Commentary), английские (full, SDH, Commentary
Видео : H.264/AVC, 1162x486 (2.40: 1), 23.976 fps, ~ 3217 kbps avg, 0.233 bit/pixel
Аудио 1 : 48 kHz, AC3, 6 channels, 448 kbps | Профессиональный (дублированный) Blu-ray
Аудио 2 : 48 kHz, AC3, 6 channels, 448 kbps | Авторский (одноголосый закадровый) Ю.Сербин
Аудио 3 : 48 kHz, AC3, 6 channels, 448 kbps | Оригинал English Код: General
Unique ID : 204097667343829992112673509367649614697 (0x998BC7E9D4615D9FAA61A68770673B69)
Complete name : I:AVC VideoMarvelНовый Человек-паук [The Amazing Spider-Man] \'12 [Just_TeMa].mkv
Format : Matroska
Format version : Version 4/Version 2
File size : 4.35 GiB
Duration : 2h 16mn
Overall bit rate : 4 565 Kbps
Movie name : Новый Человек-паук/The Amazing Spider-Man (Марк Уэбб/Marc Webb) 2012
Encoded date : UTC 2016-06-16 17:33:36
Writing application : mkvmerge v8.3.0 (\'Over the Horizon\') 64bit
Writing library : libebml v1.3.1 + libmatroska v1.4.2
Attachements : Cover.png
Video
ID : 1
Format : AVC
Format/Info : Advanced Video Codec
Format profile :High@L4.1
Format settings, CABAC : Yes
Format settings, ReFrames : 14 frames
Codec ID : V_MPEG4/ISO/AVC
Duration : 2h 16mn
Bit rate : 3 130 Kbps
Width : 1 162 pixels
Height : 486 pixels
Display aspect ratio : 2.40:1
Frame rate mode : Constant
Frame rate : 23.976 fps
Color space : YUV
Chroma subsampling : 4:2:0
Bit depth : 8 bits
Scan type : Progressive
Bits/(Pixel*Frame) : 0.231
Stream size : 2.98 GiB (69%)
Title : by Just_TeMa (source BDRemux 4K Remastered)
Writing library : x264 core 148 r2692kMod 64f4e24
Encoding settings : cabac=1/ref=14/deblock=1:-3:-3/analyse=0x3:0x133/me=umh/subme=11/psy=1/fade_compensate=0.00/psy_rd=1.05:0.00/mixed_ref=1/me_range=48/chroma_me=1/trellis=2/8x8dct=1/cqm=0/deadzone=21, 11/fast_pskip=1/chroma_qp_offset=-2/threads=6/lookahead_threads=1/sliced_threads=0/nr=0/decimate=1/interlaced=0/bluray_compat=0/constrained_intra=0/fgo=0/bframes=16/b_pyramid=2/b_adapt=2/b_bias=0/direct=3/weightb=1/open_gop=0/weightp=2/keyint=240/keyint_min=24/scenecut=40/intra_refresh=0/rc_lookahead=120/rc=crf/mbtree=0/crf=17.0000/qcomp=0.75/qpmin=0/qpmax=69/qpstep=4/vbv_maxrate=62500/vbv_bufsize=78125/crf_max=0.0/nal_hrd=none/filler=0/ip_ratio=1.30/pb_ratio=1.17/aq=3:0.90/zones=824, 1431, b=2/29704, 31042, b=2/31303, 31383, b=2/33066, 33158, b=2/57188, 57590, b=2/58135, 58832, b=2/104517, 104633, b=2/140573, 140719, b=2/150377, 150436, b=2/160606, 160649, b=2/174564, 174675, b=2/181416, 181594, b=2/183150, 184003, b=1.5/186146, 187338, b=2
Language : English
Default : Yes
Forced : No
Audio #1
ID : 2
Format : AC-3
Format/Info : Audio Coding 3
Mode extension : CM (complete main)
Format settings, Endianness : Big
Codec ID : A_AC3
Duration : 2h 16mn
Bit rate mode : Constant
Bit rate : 448 Kbps
Channel(s) : 6 channels
Channel positions : Front: L C R, Side: L R, LFE
Sampling rate : 48.0 KHz
Compression mode : Lossy
Stream size : 437 MiB (10%)
Title : Dub
Language : Russian
Default : Yes
Forced : No
Audio #2
ID : 3
Format : AC-3
Format/Info : Audio Coding 3
Mode extension : CM (complete main)
Format settings, Endianness : Big
Codec ID : A_AC3
Duration : 2h 16mn
Bit rate mode : Constant
Bit rate : 448 Kbps
Channel(s) : 6 channels
Channel positions : Front: L C R, Side: L R, LFE
Sampling rate : 48.0 KHz
Compression mode : Lossy
Stream size : 437 MiB (10%)
Title : AVO (Ю. Сербин)
Language : Russian
Default : No
Forced : No
Audio #3
ID : 4
Format : AC-3
Format/Info : Audio Coding 3
Mode extension : CM (complete main)
Format settings, Endianness : Big
Codec ID : A_AC3
Duration : 2h 16mn
Bit rate mode : Constant
Bit rate : 448 Kbps
Channel(s) : 6 channels
Channel positions : Front: L C R, Side: L R, LFE
Sampling rate : 48.0 KHz
Compression mode : Lossy
Stream size : 437 MiB (10%)
Title : Original
Language : English
Default : No
Forced : No
Text #1
ID : 5
Format : UTF-8
Codec ID : S_TEXT/UTF8
Codec ID/Info : UTF-8 Plain Text
Title : Forced
Language : Russian
Default : Yes
Forced : No
Text #2
ID : 6
Format : UTF-8
Codec ID : S_TEXT/UTF8
Codec ID/Info : UTF-8 Plain Text
Title : Full
Language : Russian
Default : No
Forced : No
Text #3
ID : 7
Format : UTF-8
Codec ID : S_TEXT/UTF8
Codec ID/Info : UTF-8 Plain Text
Title : Commentary
Language : Russian
Default : No
Forced : No
Text #4
ID : 8
Format : UTF-8
Codec ID : S_TEXT/UTF8
Codec ID/Info : UTF-8 Plain Text
Title : Full
Language : English
Default : No
Forced : No
Text #5
ID : 9
Format : UTF-8
Codec ID : S_TEXT/UTF8
Codec ID/Info : UTF-8 Plain Text
Title : SDH
Language : English
Default : No
Forced : No
Text #6
ID : 10
Format : UTF-8
Codec ID : S_TEXT/UTF8
Codec ID/Info : UTF-8 Plain Text
Title : Commentary
Language : English
Default : No
Forced : No
Menu
00:00:00.000 : :Chapter 01
00:07:45.923 : :Chapter 02
00:14:39.670 : :Chapter 03
00:22:57.542 : :Chapter 04
00:32:58.226 : :Chapter 05
00:41:25.065 : :Chapter 06
00:48:42.502 : :Chapter 07
00:55:10.932 : :Chapter 08
01:03:17.293 : :Chapter 09
01:12:29.011 : :Chapter 10
01:17:51.750 : :Chapter 11
01:24:38.948 : :Chapter 12
01:34:04.555 : :Chapter 13
01:42:59.548 : :Chapter 14
01:52:16.354 : :Chapter 15
02:00:52.912 : :Chapter 16


Скриншоты для ознакомления




Онлайн видео Новый Человек-паук



Новый Человек-паук / The Amazing Spider-Man (2012) BDRip [H.264] торрент скачать бесплатно
 

Уважаемый посетитель, Вы зашли на сайт как незарегистрированный пользователь
Мы рекомендуем Вам зарегистрироваться либо войти на сайт под своим именем

Информация
Посетители, находящиеся в группе Гости, не могут оставлять комментарии в данной новости.
Добро пожаловать на сайт!

Этот сайт для истинных фанатов торрента.


ВНИМАНИЕ! ВСЕ ЖАЛОБЫ через РОСКОМНАДЗОР!
Мы со своей стороны, контент удаляем в течениии суток.

infobazafun@gmail.com почта для обращений

Опросы

Вы добавили сайт в закладки?

Да
Нет