RSS
 
КПК и мобильные торрент скачать .torrent скачали: 6 Вернуться назад

Постучись в мою дверь / Sen Cal Kapimi (2020) WEB-DLRip [H.264] (сезон 1, серии 1 из ) SesDizi [MP4|1280x720] (обновляемая) торрент скачать бесплатно

13-07-2020, 05:01 КПК и мобильные торрент скачать
  •  (голосов: 1, оценка 3/5, голосовать можно 1 раз )
 
Постучись в мою дверь / Sen Cal Kapimi (2020) WEB-DLRip [H.264] (сезон 1, серии 1 из ) SesDizi [MP4|1280x720] (обновляемая)Производство: Турция/MF Yapım
Жанр: Романтическая комедия
Режиссер: Эндер Михлар
Актеры: Керем Бюрсин, Ханде Эрчел, Неслихан Йельдан, Эврим Доган, Биге Онал, Исмаил Эге Шашмаз, Аныл Ильтер, Мелиса Дёнгель, Чагры Чытанак, Эльчин Афаджан

Описание

Эда Йылдыз собирается учиться за границей, она получила грант. Все ее надежды на светлое будущее связаны с хорошим образованием, она должна отучиться и получить работу, чтобы помочь своей семье выйти из бедности. Однако в ее планы вмешивается судьба! По стечению обстоятельств по вине Эды крупный бизнесмен Серкан Болат, предоставивший ей грант на учебу, попадает в неловкую ситуацию. Теперь Эда должна исправить ситуацию, Серкан требует, чтобы она на два месяца притворилась его невестой, иначе не видать ей гранта! Хотя Эда вначале и отклоняет предложение человека, которого она возненавидела, но под давлением обстоятельств соглашается. Притворяясь женихом и невестой Серкан и Эда страстно и безумно влюбляются друг в друга, но у них складываются сложные отношения. Потому что любовь сложна. И именно поэтому она великолепна!

Продолжительность: ~02: 00: 00 серия
Качество видео: WEB-DLRip
Перевод: Двуголосый любительский (SesDizi)
Язык озвучки: Русский
Субтитры: отсутствуют
Видео: AVC/H.264, 1280x720, ~1236 kbps
Аудио: AAC, 2 ch, 160 kbps
General
Complete name : J: Postuchis.s01.WEB-DLRip720p.SesDiziPostuchis.s01.e01.WEB-DLRip720p.SesDizi.mp4
Format : MPEG-4
Format profile : Base Media
Codec ID : isom (isom/avc1)
File size : 1.26 GiB
Duration : 2 h 9 min
Overall bit rate mode : Variable
Overall bit rate : 1 389 kb/s
Encoded date : UTC 2020-07-09 08: 34: 45
Tagged date : UTC 2020-07-09 08: 34: 45
Writing application : My MP4Box GUI 0.6.0.6 http://my-mp4box-gui.zymichost.com
Video
ID : 1
Format : AVC
Format/Info : Advanced Video Codec
Format profile : High@L3.1
Format settings : CABAC/3 Ref Frames
Format settings, CABAC : Yes
Format settings, Reference fra : 3 frames
Format settings, GOP : N=1
Codec ID : avc1
Codec ID/Info : Advanced Video Coding
Duration : 2 h 8 min
Bit rate : 1 236 kb/s
Maximum bit rate : 4 965 kb/s
Width : 1 280 pixels
Height : 720 pixels
Display aspect ratio : 16: 9
Frame rate mode : Constant
Frame rate : 25.000 FPS
Color space : YUV
Chroma subsampling : 4: 2: 0
Bit depth : 8 bits
Scan type : Progressive
Bits/(Pixel*Frame) : 0.054
Stream size : 1.11 GiB (88%)
Title : 1_track1.h264
Encoded date : UTC 2020-07-09 08: 34: 45
Tagged date : UTC 2020-07-09 08: 36: 04
Color range : Limited
Color primaries : BT.709
Transfer characteristics : BT.709
Matrix coefficients : BT.709
Codec configuration box : avcC
Audio
ID : 2
Format : AAC LC
Format/Info : Advanced Audio Codec Low Complexity
Codec ID : mp4a-40-2
Duration : 2 h 9 min
Bit rate mode : Variable
Bit rate : 160 kb/s
Maximum bit rate : 169 kb/s
Channel(s) : 2 channels
Channel layout : L R
Sampling rate : 44.1 kHz
Frame rate : 43.066 FPS (1024 SPF)
Compression mode : Lossy
Stream size : 148 MiB (12%)
Title : 1ð_track2.aac
Encoded date : UTC 2020-07-09 08: 35: 59
Tagged date : UTC 2020-07-09 08: 36: 04
Скриншоты:


Все одноименные релизы в Клубе
Время раздачи: с 11: 00 до 3: 00 (до появления первых 3-5 скачавших) (до появления первых 3-5 скачавших)


Постучись в мою дверь / Sen Cal Kapimi (2020) WEB-DLRip [H.264] (сезон 1, серии 1 из ) SesDizi [MP4|1280x720] (обновляемая) торрент скачать бесплатно
 

Уважаемый посетитель, Вы зашли на сайт как незарегистрированный пользователь
Мы рекомендуем Вам зарегистрироваться либо войти на сайт под своим именем

Рекоммендуем также:
    Информация
    Посетители, находящиеся в группе Гости, не могут оставлять комментарии в данной новости.
    Добро пожаловать на сайт!

    Этот сайт для истинных фанатов торрента.


    ВНИМАНИЕ! ВСЕ ЖАЛОБЫ через РОСКОМНАДЗОР!
    Мы со своей стороны, контент удаляем в течениии суток.

    infobazafun@gmail.com почта для обращений

    Опросы

    Вы добавили сайт в закладки?

    Да
    Нет