RSS
 
КПК и мобильные торрент скачать .torrent скачали: 0 Вернуться назад

Ты супер! (2020) [H.264] (Презентация 4 сезона) [MP4|1920x1080p] торрент скачать бесплатно

23-09-2020, 05:00 КПК и мобильные торрент скачать
  •  (голосов: 1, оценка 4/5, голосовать можно 1 раз )
 
Ты супер! (2020) [H.264] (Презентация 4 сезона) [MP4|1920x1080p]Производство: Россия | НТВ
Жанр: Тв шоу, музыка
Ведущий: Вадим Такменёв, Анастасия Пак

Описание

Событие №1 этой осени на НТВ — онлайн-презентация четвёртого сезона Ты супер! пройдет на главной сцене детского вокального проекта! В режиме реального времени ведущие проекта Вадим Такменёв и Анастасия Пак рассказали не только о новых участниках конкурса, но и о том, что произошло с ребятами из прошлых сезонов Ты супер!.
Возраст: 6+ (зрителям, достигшим 6 лет)
Продолжительность: 01: 22: 00
Качество видео: WEBRip
Субтитры: Отсутствуют
Видео: AVC/H.264, 1920x1080, ~2787 kbps
Аудио: AAC, 2 ch, 128 kbps - русский
General
Complete name : Ты супер!_Презентация_4_сезона!.mp4
Format : MPEG-4
Format profile : Base Media
Codec ID : isom (isom/iso2/avc1/mp41)
File size : 1.67 GiB
Duration : 1 h 22 min
Overall bit rate : 2 923 kb/s
Writing application : Lavf58.20.100
Video
ID : 1
Format : AVC
Format/Info : Advanced Video Codec
Format profile : High@L4
Format settings : CABAC/3 Ref Frames
Format settings, CABAC : Yes
Format settings, ReFrames : 3 frames
Codec ID : avc1
Codec ID/Info : Advanced Video Coding
Duration : 1 h 21 min
Duration_FirstFrame : -33 ms
Bit rate : 2 787 kb/s
Width : 1 920 pixels
Height : 1 080 pixels
Display aspect ratio : 16: 9
Frame rate mode : Variable
Frame rate : 30.000 FPS
Minimum frame rate : 30.000 FPS
Maximum frame rate : 30.020 FPS
Color space : YUV
Chroma subsampling : 4: 2: 0
Bit depth : 8 bits
Scan type : Progressive
Bits/(Pixel*Frame) : 0.045
Stream size : 1.60 GiB (95%)
Color range : Limited
Color primaries : BT.709
Transfer characteristics : BT.709
Matrix coefficients : BT.709
Codec configuration box : avcC
Audio
ID : 2
Format : AAC LC
Format/Info : Advanced Audio Codec Low Complexity
Codec ID : mp4a-40-2
Duration : 1 h 22 min
Bit rate mode : Constant
Bit rate : 128 kb/s
Channel(s) : 2 channels
Channel layout : L R
Sampling rate : 44.1 kHz
Frame rate : 43.066 FPS (1024 SPF)
Compression mode : Lossy
Stream size : 75.1 MiB (4%)
Default : Yes
Alternate group : 1


Ты супер! (2020) [H.264] (Презентация 4 сезона) [MP4|1920x1080p] торрент скачать бесплатно
 

Уважаемый посетитель, Вы зашли на сайт как незарегистрированный пользователь
Мы рекомендуем Вам зарегистрироваться либо войти на сайт под своим именем

Информация
Посетители, находящиеся в группе Гости, не могут оставлять комментарии в данной новости.
Добро пожаловать на сайт!

Этот сайт для истинных фанатов торрента.


ВНИМАНИЕ! ВСЕ ЖАЛОБЫ через РОСКОМНАДЗОР!
Мы со своей стороны, контент удаляем в течениии суток.

infobazafun@gmail.com почта для обращений

Опросы

Вы добавили сайт в закладки?

Да
Нет